Download Vasco Rossi Modena Park - Il Film (2017).720p.H264.Ac3-5.1-MIRCrew Torrent | 1337x

Vasco Rossi Modena Park - Il Film (2017).720p.H264.Ac3-5.1-MIRCre...

  • Category Music
  • Type Video
  • Language Italian
  • Total size 3.3 GB
  • Uploaded By robbyrs
  • Downloads 79
  • Last checked 13 hours ago
  • Date uploaded 2 months ago
  • Seeders 20
  • Leechers 10

Infohash : 6A5F5B963914DE80CE0185690539F07B93987DBD

Vasco Rossi Modena Park - Il Film (2017).720p.H264.Ac3-5.1-MIRCrew


NO FOUND ONLY ORIGINAL RELEASE



My release is always in double track audio italian and Original audio
for select it use VLC or dvd player home
not use wmp

Vasco Rossi Modena Park - Il Film (2017)

Quality MIRCrew on HD 720p da 3,3 gb







GENERE: Musicale
ANNO: 2017
REGIA: Pepsy Romanoff
ATTORI: Vasco Rossi
PAESE: Italia
DURATA: 157 Min



********************************



Vasco Modena Park - il film al cinema la versione inedita dell'evento che il 1° luglio a Modena ha visto Vasco protagonista assoluto assieme ai 220.000 spettatori accorsi da ogni parte per partecipare alla "festa epocale" dei suoi primi 40 anni "dal fronte del palco". Duecentoventimila voci al cielo, ventisette telecamere, massima attenzione alla resa sonora, un montaggio al cardiopalma. Il film diretto da Giuseppedomingo Romano, in arte PEPSY ROMANOFF, è arricchito da preziosi materiali inediti e dalle riflessioni dello stesso Vasco, che si trasformerà in un Caronte capace di trasportare i fan a esplorare gli spartiti della sua vita. Oltre due ore di rock e di energia pura, per rivivere un momento unico da ascoltare, un’avventura epica da guardare, una grande festa da…cantare – e perché no ballare – ancora una volta tutti insieme. Ma questa volta al cinema!



Vasco Modena Park - the film at the cinema the unpublished version of the event that on July 1st in Modena saw Vasco the absolute protagonist along with the 220,000 spectators from every part to participate in the "epochal party" of his first 40 years "from the stage". Two hundred and twenty thousand voices in the sky, twenty-seven cameras, maximum attention to sound performance, a heart-pounding montage. The film directed by Giuseppedomingo Romano, aka PEPSY ROMANOFF, is enriched with precious new materials and the reflections of Vasco himself, which will transform into a Charon able to transport fans to explore the scores of his life. Over two hours of rock and pure energy, to relive a unique moment to listen, an epic adventure to watch, a big party to ... sing - and why not dance - all together again. But this time at the cinema!.









General
Unique ID : 136942641391546649957877537724360384421 (0x67063180D2E928FC327852D14FF55FA5)
Complete name : Vasco Rossi Modena Park - Il Film (2017).720p.Ac3 5.1-MIRCrew.mkv
Format : Matroska
Format version : Version 2
File size : 3.34 GiB
Duration : 3h 23mn
Overall bit rate : 2 349 Kbps
Encoded date : UTC 2018-11-18T15:59:18Z
Writing application : HandBrake 0.10.5 2016021100
Writing library : Lavf55.12.0

Video
ID : 1
Format : AVC
Format/Info : Advanced Video Codec
Format profile : [email protected]
Format settings, CABAC : Yes
Format settings, ReFrames : 4 frames
Codec ID : V_MPEG4/ISO/AVC
Duration : 3h 23mn
Bit rate : 1 900 Kbps
Width : 1 280 pixels
Height : 560 pixels
Display aspect ratio : 2.25:1
Frame rate mode : Variable
Frame rate : 25.000 fps
Color space : YUV
Chroma subsampling : 4:2:0
Bit depth : 8 bits
Scan type : Progressive
Bits/(Pixel*Frame) : 0.106
Stream size : 2.63 GiB (79%)
Writing library : x264 core 142 r2479 dd79a61
Encoding settings : cabac=1 / ref=3 / deblock=1:0:0 / analyse=0x3:0x113 / me=hex / subme=7 / psy=1 / psy_rd=1.00:0.00 / mixed_ref=1 / me_range=16 / chroma_me=1 / trellis=1 / 8x8dct=1 / cqm=0 / deadzone=21,11 / fast_pskip=1 / chroma_qp_offset=-2 / threads=6 / lookahead_threads=1 / sliced_threads=0 / nr=0 / decimate=1 / interlaced=0 / bluray_compat=0 / constrained_intra=0 / bframes=3 / b_pyramid=2 / b_adapt=1 / b_bias=0 / direct=1 / weightb=1 / open_gop=0 / weightp=2 / keyint=250 / keyint_min=25 / scenecut=40 / intra_refresh=0 / rc_lookahead=40 / rc=abr / mbtree=1 / bitrate=1900 / ratetol=1.0 / qcomp=0.60 / qpmin=0 / qpmax=69 / qpstep=4 / vbv_maxrate=62500 / vbv_bufsize=78125 / nal_hrd=none / filler=0 / ip_ratio=1.40 / aq=1:1.00
Default : Yes
Forced : No
Color primaries : BT.709-5, BT.1361, IEC 61966-2-4, SMPTE RP177
Transfer characteristics : BT.709-5, BT.1361
Matrix coefficients : BT.709-5, BT.1361, IEC 61966-2-4 709, SMPTE RP177

Audio
ID : 2
Format : AC-3
Format/Info : Audio Coding 3
Mode extension : CM (complete main)
Codec ID : A_AC3
Duration : 3h 23mn
Bit rate mode : Constant
Bit rate : 448 Kbps
Channel(s) : 6 channels
Channel positions : Front: L C R, Side: L R, LFE
Sampling rate : 48.0 KHz
Bit depth : 16 bits
Compression mode : Lossy
Delay relative to video : 1mn 5s
Stream size : 651 MiB (19%)
Title : Surround
Language : Italian
Default : Yes
Forced : No

Menu
00:00:00.000 : :Intro
00:04:05.240 : :Colpa D'Alfredo
00:08:19.160 : :Alibi
00:18:04.000 : :Blasco Rossi
00:23:05.560 : :Bollicine
00:29:13.720 : :Ogni volta
00:33:33.280 : :Anima fragile
00:40:59.560 : :Spendida giornata
00:46:11.760 : :Ieri ho sgozzato mio figlio
00:49:37.200 : :Delusa/T’immagini/Mi piaci perchè/Gioca con me/Stasera/Sono ancora in coma/Rock & roll show
00:54:01.120 : :Vivere una favola
00:59:49.400 : :Non mi va
01:05:41.280 : :Cosa vuoi da me
01:09:15.320 : :Siamo soli
01:13:15.160 : :Come nelle favole
01:17:28.520 : :Vivere
01:23:32.760 : :Sono innocente ma…
01:27:15.720 : :Rewind
01:31:32.840 : :Liberi… liberi
01:42:30.920 : :Ed il tempo crea eroi
01:45:26.920 : :Una canzone per te
01:47:07.360 : :L’una per te
01:49:18.040 : :Ridere di te
01:52:11.840 : :Va bene, va bene così
01:55:38.080 : :Senza parole
02:01:12.880 : :Stupendo
02:09:33.040 : :Gli spari sopra
02:13:21.800 : :Sballi ravvicinati del terzo tipo
02:20:12.200 : :C’è chi dice no
02:25:16.160 : :Un mondo migliore
02:35:50.160 : :I soliti
02:39:33.880 : :Sally
02:44:28.320 : :Un senso
02:48:27.080 : :Siamo solo noi
02:58:29.560 : :Vita spericolata
03:02:27.880 : :Canzone
03:04:55.640 : :Albachiara
03:11:53.920 : :Brava Giulia
03:15:23.760 : :Ormai è tardi
03:17:04.200 : :Un gran bel film
03:21:34.200 : :Albachiara con Gaetano Curreri

Files:

  • Vasco Rossi Modena Park - Il Film (2017).720p.Ac3 5.1-MIRCrew.mkv (3.3 GB)

There are currently no comments. Feel free to leave one :)

Code:

  • udp://tracker.coppersurfer.tk:6969/announce
  • udp://tracker.torrent.eu.org:451/announce
  • udp://tracker.pirateparty.gr:6969/announce
  • udp://tracker.opentrackr.org:1337/announce
  • udp://tracker.leechers-paradise.org:6969/announce
  • udp://tracker.eddie4.nl:6969/announce
  • udp://shadowshq.yi.org:6969/announce
  • udp://shadowshq.eddie4.nl:6969/announce
  • udp://inferno.demonoid.pw:3391/announce
  • udp://eddie4.nl:6969/announce
  • udp://9.rarbg.to:2730/announce
  • udp://9.rarbg.com:2710/announce
  • udp://9.rarbg.me:2780/announce
  • udp://62.138.0.158:6969/announce
  • udp://151.80.120.114:2710/announce